<svg xmlns="http://www.w3.org/2000/svg">
<defs>
<font
       font-weight="400"
       font-style="normal"
       font-variant="normal"
       id="FontID2"
       horiz-origin-x="0"
       horiz-origin-y="0"
       horiz-adv-x="90"
       vert-origin-x="45"
       vert-origin-y="90"
       vert-adv-y="90"
       style="font-style:normal;font-variant:normal;font-weight:400"><font-face
         id="font-face7"
         font-family="Adobe Heiti Std R" /><missing-glyph
         id="missing-glyph9"><path
           id="path11"
           d="M0 0z" /></missing-glyph><glyph
         id="glyph13"
         horiz-adv-x="244"
         unicode="."><path
           id="path15"
           d="M131.989 -10.9843c46.0279,0 75.0124,33.1656 75.0124,79.1581 0,46.9846 -30.012,80.0085 -73.9848,80.0085 -43.0161,0 -75.0124,-34.016 -75.0124,-80.0085 0,-44.0082 27.9923,-79.1581 73.9848,-79.1581z" /></glyph><glyph
         id="glyph17"
         horiz-adv-x="224"
         unicode=" " /><glyph
         id="glyph19"
         horiz-adv-x="707"
         unicode="N"><path
           id="path21"
           d="M627.985 766.175l-106.973 0 0 -282.333c0,-122.174 2.9764,-220.36 11.9765,-324.499l-2.9764 -1.02757c-33.0239,81.1778 -76.0045,169.336 -124.017,253.348l-199.986 354.511 -126.001 0 0 -765.998 107.009 0 0 286.337c0,134.151 -2.0197,233.329 -8.00794,330.487l4.00397 0.992134c34.9727,-86.1739 81.0006,-176.175 126.993,-259.337l200.978 -358.479 117.001 0 0 765.998z" /></glyph><glyph
         id="glyph23"
         horiz-adv-x="870"
         unicode="M"><path
           id="path25"
           d="M765.998 766.175l-144.993 0 -111.013 -336.014c-29.9766,-94.9968 -54.0004,-181.986 -72.9927,-263.978l-3.01183 0c-18.9923,83.977 -41.9885,168.982 -69.9809,262.986l-108.001 337.007 -144.001 0 -52.0162 -765.998 108.001 0 17.008 315.995c5.98824,107.009 12.0119,227.978 13.9962,323.01l3.01183 0c18.9923,-92.0204 45.9925,-192.013 76.9967,-292.006l104.989 -340.018 87.0243 0 113.989 346.999c31.9963,97.0165 62.0084,195.025 85.0046,285.026l2.9764 0c-0.992134,-95.0322 5.03154,-213.025 10.0276,-317.022l16.9726 -321.983 112.005 0 -45.9925 765.998z" /></glyph><glyph
         id="glyph27"
         horiz-adv-x="404"
         unicode="J"><path
           id="path29"
           d="M332.01 766.175l-116.009 0 0 -508.008c0,-135.993 -46.9846,-170.009 -124.017,-170.009 -30.9687,0 -56.9768,4.9961 -75.9691,12.0119l-14.0316 -95.9889c24.0238,-9.17724 65.0202,-15.1655 100.028,-15.1655 133.973,0 229.998,63.1422 229.998,265.148l0 512.012z" /></glyph><glyph
         id="glyph31"
         horiz-adv-x="527"
         unicode="F"><path
           id="path33"
           d="M196.017 0.177167l0 335.979 261.994 0 0 96.0244 -261.994 0 0 236.978 281.979 0 0 97.0165 -397.987 0 0 -765.998 116.009 0z" /></glyph><glyph
         id="glyph35"
         horiz-adv-x="602"
         unicode="B"><path
           id="path37"
           d="M405.995 413.153c80.0085,30.012 126.001,94.0047 126.001,166.997 0,77.0321 -40.0043,191.021 -273.014,191.021 -67.9966,0 -135.993,-7.0158 -178.974,-16.0159l0 -752.994c32.9884,-4.1457 83.977,-9.17724 152.009,-9.17724 125.966,0 209.978,23.1734 260.967,72.1777 28.0278,26.0081 66.0123,72.9927 66.0123,153.993 0,107.009 -72.9927,171.001 -153.001,191.021l0 2.9764zm-211.006 33.0239l0 230.99c13.9962,3.01183 37.0279,5.98824 75.0124,5.98824 72.0006,0 145.985,-22.9962 145.985,-114.981 0,-71.0084 -58.0044,-121.997 -149.989,-121.997l-71.0084 0zm0 -85.9967l67.0045 0c89.0086,0 175.997,-37.0279 175.997,-138.013 0,-100.985 -80.0085,-139.997 -172.986,-139.997 -30.012,0 -53.0083,0.992134 -70.0163,4.00397l0 274.006z" /></glyph><glyph
         id="glyph39"
         horiz-adv-x="726"
         unicode="O"><path
           id="path41"
           d="M369.003 777.16c-196.017,0 -329.991,-157.997 -329.991,-398.98 0,-231.025 124.973,-389.164 319.999,-389.164 185.99,0 328.999,135.143 328.999,401.141 0,220.006 -116.009,387.003 -319.006,387.003zm-4.00397 -94.9968c136.985,0 201.013,-149.989 201.013,-296.01 0,-162.993 -69.0242,-301.998 -202.998,-301.998 -132.025,0 -202.006,142.017 -202.006,297.002 0,150.025 63.0005,301.006 203.99,301.006z" /></glyph><glyph
         id="glyph43"
         horiz-adv-x="609"
         unicode="C"><path
           id="path45"
           d="M554.993 114.166c-32.9884,-16.0159 -85.9967,-27.0002 -137.977,-27.0002 -158.033,0 -256.006,104.989 -256.006,292.998 0,198.994 109.985,298.987 257.99,298.987 57.0123,0 102.013,-12.9686 134.009,-27.9923l24.9805 94.9968c-20.9765,11.0198 -74.977,30.012 -162.993,30.012 -211.998,0 -375.983,-142.017 -375.983,-401.991 0,-243.994 142.974,-385.161 355.999,-385.161 82.9849,0 148.005,16.1576 180.001,32.138l-20.0198 93.0125z" /></glyph><glyph
         id="glyph47"
         horiz-adv-x="707"
         unicode="D"><path
           id="path49"
           d="M80.0085 2.16143c42.9807,-6.1654 98.0086,-9.17724 166.005,-9.17724 135.001,0 243.994,34.1932 312.983,101.198 67.0045,64.9848 110.021,165.97 110.021,304.975l0 1.02757c0,169.974 -68.032,370.987 -394.019,370.987 -72.0006,0 -139.997,-7.0158 -194.99,-16.0159l0 -752.994zm116.009 669.017c19.9844,4.00397 49.9965,7.9725 89.9653,7.9725 165.013,0 261.002,-95.9889 261.002,-281.979 0,-211.006 -103.997,-311.991 -275.99,-310.999 -27.0002,0 -54.9926,0.992134 -74.977,4.00397l0 581.001z" /></glyph><glyph
         id="glyph51"
         horiz-adv-x="661"
         unicode="A"><path
           id="path53"
           d="M400.999 766.175l-142.017 0 -233.966 -765.998 118.985 0 66.0123 225.002 234.002 0 68.9887 -225.002 121.997 0 -234.002 765.998zm-172.986 -452.023l60.9808 201.509c13.004,47.1618 25.0159,103.324 36.0003,150.521l2.0197 0c10.9843,-47.1972 23.9884,-101.339 37.9846,-151.336l59.9887 -200.694 -196.974 0z" /></glyph><glyph
         id="glyph55"
         horiz-adv-x="702"
         unicode="H"><path
           id="path57"
           d="M624.017 766.175l-116.009 0 0 -315.995 -311.991 0 0 315.995 -116.009 0 0 -765.998 116.009 0 0 347.991 311.991 0 0 -347.991 116.009 0 0 765.998z" /></glyph><glyph
         id="glyph59"
         horiz-adv-x="274"
         unicode="I"><path
           id="path61"
           d="M80.0085 0.177167l116.009 0 0 765.998 -116.009 0 0 -765.998z" /></glyph><glyph
         id="glyph63"
         horiz-adv-x="513"
         unicode="L"><path
           id="path65"
           d="M491 98.1504l-294.983 0 0 668.025 -116.009 0 0 -765.998 410.991 0 0 97.9732z" /></glyph><glyph
         id="glyph67"
         horiz-adv-x="594"
         unicode="R"><path
           id="path69"
           d="M408.015 366.168c76.9967,28.9845 136.985,95.9889 136.985,193.998 0,62.0084 -21.012,115.017 -61.0162,149.989 -47.9768,43.0161 -117.993,61.0162 -217.986,61.0162 -68.9887,0 -136.985,-7.0158 -185.99,-16.0159l0 -754.978 114.981 0 0 324.003 70.0163 0c81.0006,0 117.993,-39.0121 139.005,-141.025 18.9923,-94.0047 36.9924,-160.974 47.9768,-182.978l120.013 0c-14.9883,28.9845 -34.016,108.001 -57.0123,207.994 -18.0001,81.0006 -49.9965,135.001 -106.973,156.013l0 1.98427zm-213.025 45.0004l0 262.986c13.9962,4.00397 42.024,7.0158 81.0006,7.0158 83.0203,0 153.001,-34.016 153.001,-133.017 0,-81.9928 -59.9887,-136.985 -155.978,-136.985l-78.0242 0z" /></glyph><glyph
         id="glyph71"
         horiz-adv-x="585"
         unicode="P"><path
           id="path73"
           d="M80.0085 0.177167l114.981 0 0 299.979c19.0277,-4.00397 40.9964,-4.9961 65.0202,-4.9961 137.977,0 285.983,63.9926 285.983,250.018 0,69.9809 -26.0081,127.985 -68.9887,164.978 -45.9925,40.9964 -117.001,61.0162 -211.006,61.0162 -78.9809,0 -139.997,-7.0158 -185.99,-14.9883l0 -756.006zm114.981 672.986c15.0237,3.01183 42.024,7.0158 78.0242,7.0158 92.9771,0 156.97,-47.0201 156.97,-139.997 0,-98.0086 -63.9926,-153.001 -169.974,-153.001 -27.0002,0 -48.0122,0.992134 -65.0202,5.98824l0 279.994z" /></glyph><glyph
         id="glyph75"
         horiz-adv-x="540"
         unicode="T"><path
           id="path77"
           d="M535.008 766.175l-529.02 0 0 -99.0008 206.009 0 0 -666.997 116.009 0 0 666.997 207.002 0 0 99.0008z" /></glyph><glyph
         id="glyph79"
         horiz-adv-x="539"
         unicode="S"><path
           id="path81"
           d="M465.984 742.152c-32.9884,17.008 -87.981,35.0081 -160.974,35.0081 -152.009,0 -249.026,-90.9928 -249.026,-211.998 0,-103.997 77.0321,-172.986 191.021,-218.978 90.9928,-38.02 130.005,-78.0242 130.005,-143.009 0,-69.0242 -51.024,-116.009 -142.017,-116.009 -63.0005,0 -125.009,19.9844 -166.005,45.0004l-25.9726 -97.0165c36.9924,-24.9805 112.997,-46.1342 184.998,-46.1342 171.993,0 266.99,96.1661 266.99,224.151 0,104.989 -58.9965,171.993 -182.021,225.994 -96.9811,41.9885 -139.997,74.0203 -139.997,139.005 0,49.0043 38.02,102.013 129.013,102.013 63.0005,0 111.013,-20.0198 135.993,-34.016l27.9923 95.9889z" /></glyph><glyph
         id="glyph83"
         horiz-adv-x="612"
         unicode="b"><path
           id="path85"
           d="M189.994 474.169l0 328.007 -116.009 0 0 -655.021c0,-49.9965 -1.98427,-109.985 -3.96854,-146.978l99.0008 0 5.98824 82.9849 3.01183 0c36.9924,-64.9848 91.985,-94.1464 162.993,-94.1464 113.989,0 230.99,94.1464 230.99,295.16 0,167.99 -86.9889,279.002 -212.99,279.002 -76.9967,0 -134.009,-33.0239 -166.997,-89.0086l-2.0197 0zm0 -148.005c0,72.9927 54.0004,144.001 126.993,144.001 92.0204,0 137.021,-86.9889 137.021,-190.986 0,-118.028 -49.0043,-197.009 -138.013,-197.009 -76.0045,0 -126.001,66.0123 -126.001,135.993l0 108.001z" /></glyph><glyph
         id="glyph87"
         horiz-adv-x="600"
         unicode="h"><path
           id="path89"
           d="M528.984 333.18c0,173.978 -95.9889,229.998 -178.974,229.998 -60.0241,0 -121.997,-30.012 -157.997,-87.0243l-2.0197 0 0 326.022 -116.009 0 0 -801.998 116.009 0 0 337.007c0,82.9849 61.0162,129.97 117.993,129.97 78.0242,0 105.024,-65.9769 105.024,-144.993l0 -321.983 115.973 0 0 333.003z" /></glyph><glyph
         id="glyph91"
         horiz-adv-x="523"
         unicode="k"><path
           id="path93"
           d="M314.01 324.18l193.998 226.986 -137.021 0 -136.985 -184.005c-13.9962,-18.9923 -28.9845,-42.9807 -41.9885,-63.9926l-2.0197 0 0 499.008 -116.009 0 0 -801.998 116.009 0 0 198.002 45.0004 54.9926 157.997 -252.994 139.997 0 -218.978 324.003z" /></glyph><glyph
         id="glyph95"
         horiz-adv-x="900"
         unicode="m"><path
           id="path97"
           d="M829.991 333.18c0,173.978 -90.0007,229.998 -171.993,229.998 -78.9809,0 -132.981,-40.0043 -170.009,-101.02l-1.98427 0c-22.9962,62.0084 -76.0045,101.02 -146.021,101.02 -83.977,0 -133.973,-47.0201 -160.974,-93.0125l-3.01183 0 -5.98824 81.0006 -99.9929 0c1.98427,-46.9846 3.96854,-93.0125 3.96854,-154.985l0 -396.003 114.025 0 0 333.995c0,86.9889 58.9965,134.009 110.977,134.009 67.0045,0 96.0244,-58.9965 96.0244,-136.029l0 -331.975 113.989 0 0 339.983c0,80.0085 54.0004,128.021 107.009,128.021 69.9809,0 99.9929,-61.0162 99.9929,-153.001l0 -315.002 113.989 0 0 333.003z" /></glyph><glyph
         id="glyph99"
         horiz-adv-x="474"
         unicode="c"><path
           id="path101"
           d="M428.992 104.174c-26.0081,-11.0198 -58.0044,-22.0041 -103.997,-22.0041 -95.9889,0 -166.997,72.0006 -166.997,193.005 0,108.001 59.9887,195.982 167.99,195.982 47.0201,0 79.0164,-11.9765 99.0008,-22.0041l22.9962 89.0086c-23.9884,12.0119 -69.9809,25.0159 -122.989,25.0159 -176.99,0 -284.99,-126.001 -284.99,-292.998 0,-172.029 103.997,-281.164 262.986,-281.164 63.9926,0 116.009,16.1576 142.017,28.1341l-16.0159 87.0243z" /></glyph><glyph
         id="glyph103"
         horiz-adv-x="590"
         unicode="o"><path
           id="path105"
           d="M298.987 563.178c-145.985,0 -259.974,-105.024 -259.974,-291.014 0,-177.982 108.993,-283.148 252.002,-283.148 123.981,0 257.99,85.1463 257.99,291.156 0,168.982 -99.0008,283.006 -250.018,283.006zm130.997 -286.018c0,-109.985 -51.9807,-200.978 -135.993,-200.978 -85.0046,0 -135.993,90.9928 -135.993,198.994 0,94.9968 38.02,200.978 136.985,200.978 97.0165,0 135.001,-108.001 135.001,-198.994z" /></glyph><glyph
         id="glyph107"
         horiz-adv-x="608"
         unicode="d"><path
           id="path109"
           d="M534.016 802.176l-116.009 0 0 -313.018 -2.0197 0c-23.9884,42.024 -74.977,74.0203 -145.985,74.0203 -122.989,0 -229.998,-106.017 -229.998,-292.998 0,-170.009 94.9968,-281.164 220.006,-281.164 77.9888,0 137.977,41.1381 166.997,97.1582l2.9764 0 6.02367 -85.9967 101.977 0c-1.98427,37.9846 -3.96854,96.9811 -3.96854,146.978l0 655.021zm-116.009 -576.005c0,-76.9967 -49.0043,-143.009 -124.017,-143.009 -87.981,0 -135.993,83.0203 -135.993,191.021 0,108.993 49.0043,196.974 138.013,196.974 64.9848,0 121.997,-53.0083 121.997,-142.974l0 -102.013z" /></glyph><glyph
         id="glyph111"
         horiz-adv-x="264"
         unicode="l"><path
           id="path113"
           d="M189.994 802.176l-116.009 0 0 -801.998 116.009 0 0 801.998z" /></glyph><glyph
         id="glyph115"
         horiz-adv-x="543"
         unicode="e"><path
           id="path117"
           d="M458.011 104.174c-36.0003,-15.0237 -78.0242,-26.0081 -139.005,-26.0081 -86.9889,0 -164.021,46.9846 -166.997,171.001l349.975 0c2.0197,13.9962 3.01183,30.012 3.01183,49.0043 0,135.993 -62.0084,265.006 -216.994,265.006 -156.013,0 -247.998,-130.997 -247.998,-295.018 0,-167.99 95.9889,-279.144 261.994,-279.144 75.0124,0 135.993,15.1655 175.005,33.1656l-18.9923 81.9928zm-305.01 227.978c5.98824,64.0281 41.9885,148.005 126.993,148.005 89.0086,0 116.009,-81.9928 115.017,-148.005l-242.01 0z" /></glyph><glyph
         id="glyph119"
         horiz-adv-x="332"
         unicode="f"><path
           id="path121"
           d="M14.9883 551.166l0 -86.9889 74.0203 0 0 -464 116.009 0 0 464 119.977 0 0 86.9889 -121.005 0 0 30.012c0,73.9848 22.0041,139.005 94.0047,139.005 27.0002,0 44.0082,-5.03154 58.9965,-11.0198l12.0119 89.0086c-20.0198,8.00794 -48.0122,14.9883 -84.0125,14.9883 -45.0004,0 -95.9889,-13.9962 -133.973,-50.9886 -62.0084,-62.0084 -62.0084,-151.017 -62.0084,-211.006l-74.0203 0z" /></glyph><glyph
         id="glyph123"
         horiz-adv-x="603"
         unicode="g"><path
           id="path125"
           d="M431.011 551.166l-4.9961 -73.9848 -2.0197 0c-22.9962,43.9728 -68.9887,85.9967 -150.982,85.9967 -120.013,0 -233.01,-103.997 -233.01,-291.014 0,-153.993 89.0086,-269.01 218.978,-269.01 71.0084,0 125.009,34.016 153.001,81.0006l2.0197 0 0 -52.9729c0,-125.186 -63.9926,-175.182 -153.993,-175.182 -62.0084,0 -115.017,18.9923 -148.997,39.0121l-26.0081 -90.0007c42.9807,-26.0081 109.985,-40.0043 173.978,-40.0043 261.002,0 270.002,202.998 270.002,313.16l0 314.01c0,73.9848 2.0197,119.977 5.03154,158.989l-103.005 0zm-18.0001 -320.991c0,-92.0204 -60.0241,-138.013 -120.013,-138.013 -85.9967,0 -135.001,76.9967 -135.001,184.998 0,117.993 56.0201,193.998 135.993,193.998 71.0084,0 119.021,-59.9887 119.021,-132.981l0 -108.001z" /></glyph><glyph
         id="glyph127"
         horiz-adv-x="265"
         unicode="i"><path
           id="path129"
           d="M199.986 703.175c0,38.9767 -27.0002,67.9966 -66.969,67.9966 -40.0043,0 -68.032,-29.0199 -68.032,-67.9966 0,-36.9924 27.0002,-67.0045 67.0045,-67.0045 42.024,0 67.9966,30.012 67.9966,67.0045zm-9.9922 -152.009l-116.009 0 0 -550.989 116.009 0 0 550.989z" /></glyph><glyph
         id="glyph131"
         horiz-adv-x="600"
         unicode="n"><path
           id="path133"
           d="M528.984 337.184c0,169.974 -95.9889,225.994 -181.986,225.994 -82.9849,0 -140.989,-47.0201 -166.997,-94.0047l-3.01183 0 -5.98824 81.9928 -100.985 0c1.98427,-46.9846 3.96854,-94.0047 3.96854,-154.985l0 -396.003 116.009 0 0 331.975c0,88.0164 61.0162,135.001 117.993,135.001 79.0164,0 105.024,-65.9769 105.024,-144.001l0 -322.975 115.973 0 0 337.007z" /></glyph><glyph
         id="glyph135"
         horiz-adv-x="531"
         unicode="a"><path
           id="path137"
           d="M459.996 339.168c0,117.001 -45.0004,224.01 -207.002,224.01 -73.9848,0 -139.005,-21.012 -177.982,-46.0279l23.9884 -76.9967c35.0081,22.9962 85.0046,38.02 134.009,38.02 110.977,0 110.977,-81.9928 110.977,-122.989 -189.001,0 -307.987,-68.032 -307.987,-205.017 0,-85.0046 58.9965,-161.151 162.001,-161.151 68.9887,0 122.989,32.138 153.993,75.1541l3.01183 0 8.00794 -63.9926 104.989 0c-7.0158,36.0003 -8.00794,83.977 -8.00794,130.997l0 207.994zm-112.997 -153.001c0,-63.9926 -52.0162,-112.005 -114.981,-112.005 -43.0161,0 -81.0006,27.0002 -81.0006,88.0164 0,97.9732 104.989,114.981 195.982,114.981l0 -90.9928z" /></glyph><glyph
         id="glyph139"
         horiz-adv-x="510"
         unicode="x"><path
           id="path141"
           d="M372.015 551.166l-63.0005 -109.985c-16.0159,-29.0199 -32.0317,-58.9965 -48.0122,-90.0007l-2.0197 0c-15.9804,29.9766 -30.9687,58.0044 -48.9689,88.9731l-66.0123 111.013 -127.985 0 171.001 -270.994 -178.017 -279.994 126.001 0 64.9848 117.001c18.0001,31.9963 34.016,60.9808 50.0319,92.9771l1.98427 0c15.9804,-32.9884 31.9963,-61.9729 49.0043,-91.985l67.9966 -117.993 130.997 0 -175.997 284.99 172.986 265.998 -124.973 0z" /></glyph><glyph
         id="glyph143"
         horiz-adv-x="597"
         unicode="u"><path
           id="path145"
           d="M522.004 551.166l-116.009 0 0 -341.011c0,-82.9849 -62.0084,-124.973 -114.981,-124.973 -76.0045,0 -103.005,63.0005 -103.005,157.997l0 307.987 -116.009 0 0 -327.333c0,-175.679 82.9849,-234.817 178.017,-234.817 88.9731,0 142.974,53.15 165.97,91.1346l3.01183 0 5.98824 -79.9731 102.013 0c-1.98427,43.9728 -4.9961,95.8118 -4.9961,157.643l0 393.346z" /></glyph><glyph
         id="glyph147"
         horiz-adv-x="518"
         unicode="y"><path
           id="path149"
           d="M387.995 551.166l-89.0086 -310.006c-9.9922,-36.9924 -20.9765,-77.9888 -28.9845,-109.985l-3.01183 0c-8.00794,31.9963 -18.9923,73.9848 -29.9766,109.985l-100.028 310.006 -126.993 0 189.001 -508.008c4.9961,-10.9843 6.02367,-18.0001 6.02367,-23.9884 0,-14.9883 -43.0161,-127.17 -163.029,-170.186l30.012 -97.9732c27.0002,5.98824 77.9888,24.9805 127.985,70.973 66.0123,64.0281 112.005,166.005 177.025,347.176l132.981 382.007 -121.997 0z" /></glyph><glyph
         id="glyph151"
         horiz-adv-x="527"
         unicode="v"><path
           id="path153"
           d="M393.983 551.166l-88.9731 -293.991c-13.9962,-48.0122 -27.0002,-93.0125 -37.0279,-139.005l-2.9764 0c-9.9922,45.9925 -22.0041,91.985 -36.9924,139.997l-90.0007 292.998 -125.009 0 193.005 -550.989 110.977 0 198.002 550.989 -121.005 0z" /></glyph><glyph
         id="glyph155"
         horiz-adv-x="369"
         unicode="t"><path
           id="path157"
           d="M97.0165 551.166l-78.0242 0 0 -86.9889 78.0242 0 0 -285.026c0,-72.0006 12.9686,-117.993 40.9964,-147.97 23.9884,-27.0002 63.0005,-42.1657 108.993,-42.1657 38.9767,0 69.9809,4.9961 90.0007,13.1458l-4.00397 89.0086c-13.9962,-4.00397 -27.9923,-7.0158 -50.9886,-7.0158 -49.0043,0 -70.0163,33.0239 -70.0163,101.02l0 279.002 130.997 0 0 86.9889 -130.997 0 0 135.993 -114.981 -36.0003 0 -99.9929z" /></glyph><glyph
         id="glyph159"
         horiz-adv-x="366"
         unicode="r"><path
           id="path161"
           d="M351.003 560.166c-9.9922,1.98427 -18.0001,3.01183 -29.0199,3.01183 -59.9887,0 -117.993,-43.0161 -142.974,-112.997l-4.00397 0 -4.00397 100.985 -100.985 0c2.9764,-50.9886 3.96854,-103.997 3.96854,-167.99l0 -382.999 116.009 0 0 292.006c0,95.9889 49.0043,159.982 126.993,159.982 13.004,0 24.0238,-0.992134 34.016,-3.01183l0 111.013z" /></glyph><glyph
         id="glyph163"
         horiz-adv-x="612"
         unicode="p"><path
           id="path165"
           d="M178.017 467.153l-6.02367 84.0125 -101.977 0c1.98427,-49.0043 3.96854,-106.017 3.96854,-177.982l0 -596.202 116.009 0 0 288.179 2.0197 0c27.0002,-45.0004 81.0006,-76.1463 146.978,-76.1463 116.009,0 233.01,91.1346 233.01,293.14 0,171.001 -93.0125,281.022 -216.994,281.022 -76.9967,0 -137.021,-34.016 -175.005,-96.0244l-1.98427 0zm11.9765 -142.974c0,81.0006 58.9965,145.985 128.021,145.985 88.9731,0 135.993,-86.9889 135.993,-192.013 0,-113.989 -49.0043,-196.974 -139.005,-196.974 -57.0123,0 -125.009,41.9885 -125.009,140.989l0 102.013z" /></glyph><glyph
         id="glyph167"
         horiz-adv-x="432"
         unicode="s"><path
           id="path169"
           d="M373.999 531.181c-30.012,16.9726 -76.9967,31.9963 -130.997,31.9963 -116.009,0 -190.986,-73.0281 -190.986,-165.013 0,-63.9926 42.9807,-118.985 140.989,-157.997 65.9769,-27.9923 89.0086,-50.9886 89.0086,-93.0125 0,-41.9885 -30.012,-72.0006 -92.0204,-72.0006 -46.9846,0 -98.0086,20.0198 -126.001,37.0279l-26.0081 -86.0322c37.0279,-21.9687 92.0204,-37.1342 150.025,-37.1342 124.973,0 205.974,63.1422 205.974,169.159 0,80.0085 -47.9768,130.005 -138.97,166.997 -67.0045,28.9845 -92.0204,48.0122 -92.0204,85.9967 0,36.9924 27.9923,67.0045 80.0085,67.0045 45.0004,0 82.9849,-17.008 104.989,-31.0042l26.0081 84.0125z" /></glyph></font><font
       font-weight="400"
       font-style="normal"
       font-variant="normal"
       id="FontID1"
       horiz-origin-x="0"
       horiz-origin-y="0"
       horiz-adv-x="90"
       vert-origin-x="45"
       vert-origin-y="90"
       vert-adv-y="90"
       style="font-style:normal;font-variant:normal;font-weight:400"><font-face
         id="font-face172"
         font-family="HeadlineNEWS" /><missing-glyph
         id="missing-glyph174"><path
           id="path176"
           d="M0 0z" /></missing-glyph><glyph
         id="glyph178"
         horiz-adv-x="374"
         unicode=" " /><glyph
         id="glyph180"
         horiz-adv-x="398"
         unicode="."><path
           id="path182"
           d="M337.008 126.016c0,-37.3543 -13.5118,-69.5118 -40.5039,-96.5039 -26.9921,-27.0236 -59.1811,-40.5039 -96.5039,-40.5039 -37.9843,0 -70.3307,13.3228 -97.0079,40 -26.6457,26.6457 -40,58.9921 -40,97.0079 0,37.9843 13.3543,70.3307 40,96.9764 26.6772,26.6772 59.0236,40 97.0079,40 38.0157,0 70.3307,-13.3228 97.0079,-40 26.6457,-26.6457 40,-58.9921 40,-96.9764z" /></glyph><glyph
         id="glyph184"
         horiz-adv-x="918"
         unicode="H"><path
           id="path186"
           d="M841.008 0l-261.008 0 0 281.008 -237.008 0 0 -281.008 -260.976 0 0 750.992 260.976 0 0 -269.984 237.008 0 0 269.984 261.008 0 0 -750.992z" /></glyph><glyph
         id="glyph188"
         horiz-adv-x="466"
         unicode="J"><path
           id="path190"
           d="M387.181 128c0,-80.6614 -21.0079,-144.661 -63.0236,-192 -44,-49.3228 -105.984,-74.0157 -185.984,-74.0157 -28.6614,0 -50.0157,2.3622 -64,7.02362 -4,1.32283 -10.1732,19.1496 -18.5197,53.4803 -8.31496,34.3307 -16.8189,52.5039 -25.4803,54.5197l-32 122.992c14.6457,-3.33858 27.6535,-5.00787 38.9921,-5.00787 59.3386,0 89.0079,33.0079 89.0079,99.0236l0 556.976 261.008 0 0 -622.992z" /></glyph><glyph
         id="glyph192"
         horiz-adv-x="861"
         unicode="G"><path
           id="path194"
           d="M793.165 60c-95.3386,-49.3228 -201.323,-74.0157 -317.984,-74.0157 -122.016,0 -222.016,33.6693 -300,101.008 -82.0157,70.6772 -123.024,166.016 -123.024,286.016 0,121.984 42.0157,218.992 126.016,290.992 79.3386,67.3386 181.323,101.008 305.984,101.008 61.3543,0 117.669,-13.0079 169.008,-38.9921 54.6772,-28 96.6614,-67.685 126.016,-119.024l-116 -94.9921c-52.6929,40.6614 -107.339,61.0079 -164,61.0079 -56.6929,0 -101.669,-19.685 -135.024,-58.9921 -31.3386,-36.6929 -46.9921,-83.685 -46.9921,-141.008 0,-58.6772 15.8425,-106.016 47.4961,-142.016 31.685,-36 76.5039,-53.9843 134.52,-53.9843 20.6614,0 33.6378,2.64567 38.9921,8 9.32283,10.6457 18.3307,17.9843 26.9921,21.9843l0 65.0079 -97.9843 0 0 154.992 325.984 0 0 -366.992z" /></glyph><glyph
         id="glyph196"
         horiz-adv-x="644"
         unicode="F"><path
           id="path198"
           d="M602.992 578.016l-264.976 0 0 -125.008 242.992 0 0 -170.992 -242.992 0 0 -282.016 -259.024 0 0 750.992 524 0 0 -172.976z" /></glyph><glyph
         id="glyph200"
         horiz-adv-x="871"
         unicode="K"><path
           id="path202"
           d="M877.008 0l-304 0c-36.6614,58.6772 -73.6693,117.008 -110.992,174.992 -44.6929,71.3386 -83.685,128.346 -117.008,171.024l0 -346.016 -260 0 0 750.992 260 0 0 -340.976 240 340.976 285.984 0 -265.984 -361.984 272 -389.008z" /></glyph><glyph
         id="glyph204"
         horiz-adv-x="626"
         unicode="L"><path
           id="path206"
           d="M602.016 0l-522.016 0 0 750.992 258.992 0 0 -550.992 263.024 0 0 -200z" /></glyph><glyph
         id="glyph208"
         horiz-adv-x="913"
         unicode="O"><path
           id="path210"
           d="M862.004 379.998c0,-121.336 -36.8376,-217.16 -110.5,-287.498 -73.6751,-70.338 -171.509,-105.501 -293.502,-105.501 -120.666,0 -217.997,34.0029 -292.008,101.996 -75.9944,70.673 -113.992,165.672 -113.992,285.011 0,120.666 38.3322,216.657 114.997,287.988 73.9972,68.6758 171.999,103.001 294.005,103.001 116.659,0 212.328,-34.66 286.995,-103.993 75.9944,-71.3301 114.004,-165.002 114.004,-281.004zm-264.009 -3.00215c0,46.6686 -11.3257,84.0087 -33.99,112.007 -25.3443,30.6658 -60.6744,45.9986 -106.003,45.9986 -46.6686,0 -82.3337,-15.6679 -107.008,-47.0036 -22.6643,-27.9986 -33.99,-65.9958 -33.99,-113.992 0,-46.6686 11.3257,-84.0087 33.99,-112.007 24.0043,-30.6658 58.6772,-45.9986 104.006,-45.9986 47.9958,0 84.3308,14.9979 109.005,44.9936 22.6643,28.0115 33.99,66.6787 33.99,116.002z" /></glyph><glyph
         id="glyph212"
         horiz-adv-x="427"
         unicode="I"><path
           id="path214"
           d="M343.998 0l-258.997 0 0 751.002 258.997 0 0 -751.002z" /></glyph><glyph
         id="glyph216"
         horiz-adv-x="667"
         unicode="E"><path
           id="path218"
           d="M613.006 0l-533.004 0 0 751.002 530.994 0 0 -171.999 -270 0 0 -114.997 243.999 0 0 -171.007 -243.999 0 0 -122.006 272.01 0 0 -170.994z" /></glyph><glyph
         id="glyph220"
         horiz-adv-x="1042"
         unicode="M"><path
           id="path222"
           d="M980.995 0l-252.992 0c0,68.0058 0,135.999 0,204.005 0,93.9944 -2.66715,159.668 -8.00144,196.995l-140.998 -291.003 -124.003 3.00215 -130.999 288c-6.0043,-40.6643 -9.32857,-106.338 -9.99858,-196.995 0,-68.0058 0,-135.999 0,-204.005l-253.005 0 37.9972 751.002 247.001 0 175.001 -340.003 176.006 340.003 245.004 0 38.9893 -751.002z" /></glyph><glyph
         id="glyph224"
         horiz-adv-x="877"
         unicode="D"><path
           id="path226"
           d="M441.999 749.997c114.004,0 207.007,-34.8275 279.007,-104.495 72.0001,-69.668 108,-161.163 108,-274.497 0,-109.34 -33.1783,-198.503 -99.5091,-267.501 -66.3308,-68.998 -153.831,-103.503 -262.501,-103.503l-384.997 0 0 749.997 360.001 0zm122.998 -375.991c0,54.0001 -13.6579,96.9966 -40.9993,128.989 -29.3257,34.6729 -70.6601,52.0029 -124.003,52.0029l-56.9893 0 0 -361.998 58.9994 0c54.6572,0 95.9915,16.995 123.99,50.9979 26.0015,31.3358 39.0022,74.6673 39.0022,130.007z" /></glyph><glyph
         id="glyph228"
         horiz-adv-x="960"
         unicode="N"><path
           id="path230"
           d="M877.994 0l-241.989 0 -297.999 376.996 6.99643 -376.996 -261.999 0 0 751.002 242.994 0 299.004 -378.001 -8.00144 378.001 260.994 0 0 -751.002z" /></glyph><glyph
         id="glyph232"
         horiz-adv-x="908"
         unicode="A"><path
           id="path234"
           d="M892 0l-260.994 0 -38.0101 111.994 -275.992 0 -37.0051 -111.994 -263.004 0 296.002 751.002 283.001 0 296.002 -751.002zm-345.003 253.998l-93.0023 294.005 -91.9973 -294.005 185 0z" /></glyph><glyph
         id="glyph236"
         horiz-adv-x="777"
         unicode="C"><path
           id="path238"
           d="M702.169 39.9943c-73.3401,-35.33 -150.34,-52.9951 -230.998,-52.9951 -117.999,0 -214.003,34.6729 -288,104.006 -76.0073,71.3301 -114.004,165.325 -114.004,281.996 0,118.669 39.6722,214.338 119.004,286.995 76.6644,70.003 175.001,104.998 294.997,104.998 65.9958,0 137.996,-14.3279 216,-42.9965l0 -229.001c-60.0044,34.6729 -119.004,52.0029 -176.998,52.0029 -55.9972,0 -100.669,-14.0057 -134.002,-42.0044 -36.0001,-29.3257 -54.0001,-71.3301 -54.0001,-126 0,-54.0001 18.67,-95.9915 55.9972,-126 34.0029,-27.3286 78.9965,-40.9993 135.007,-40.9993 53.3301,0 112.329,17.3429 176.998,52.0029l0 -222.005z" /></glyph><glyph
         id="glyph240"
         horiz-adv-x="861"
         unicode="R"><path
           id="path242"
           d="M848 0l-281.008 0c-48,98.0157 -72.6614,148 -73.9843,150.016 -44,81.9843 -76.6614,123.307 -98.0157,124l-53.9843 28.9764 0 -302.992 -260 0 0 750.992 409.984 0c80,0 144,-16 192,-48 56.6614,-37.3228 85.0079,-93.6693 85.0079,-168.976 0,-89.3543 -46.6772,-150.677 -140,-184 21.3228,-11.3386 62.3307,-69.3543 122.992,-174.016 32,-58.6772 64.3465,-117.323 97.0079,-176zm-333.984 517.008c0,59.3386 -37.3543,89.0079 -112,89.0079l-61.0079 0 0 -180 60 0c32,0 57.9843,6.99213 77.9843,20.9764 23.3386,16 35.0236,39.3386 35.0236,70.0157z" /></glyph><glyph
         id="glyph244"
         horiz-adv-x="774"
         unicode="P"><path
           id="path246"
           d="M754.016 504c0,-113.323 -45.3543,-187.654 -136,-222.992 -50.6772,-20 -143.685,-30.0157 -279.024,-30.0157l0 -250.992 -260 0 0 750.992 397.008 0c83.3386,0 149.669,-20 198.992,-60 52.6614,-43.3386 79.0236,-105.669 79.0236,-186.992zm-356 88l-59.0236 0 0 -181.008 58.0157 0c69.3228,0 104,30.3307 104,91.0236 0,60 -34.3307,89.9843 -102.992,89.9843z" /></glyph><glyph
         id="glyph248"
         horiz-adv-x="861"
         unicode="Y"><path
           id="path250"
           d="M845.008 750.992l-285.008 -422.992 0 -328 -260 0 0 332 -281.984 418.992 308 0 121.984 -226.992 118.992 226.992 278.016 0z" /></glyph><glyph
         id="glyph252"
         horiz-adv-x="854"
         unicode="V"><path
           id="path254"
           d="M838.992 750.992l-296.976 -750.992 -218.016 0 -305.984 750.992 277.984 0 146.992 -448c2.01575,2.67717 49.0079,152 141.008,448l254.992 0z" /></glyph><glyph
         id="glyph256"
         horiz-adv-x="668"
         unicode="S"><path
           id="path258"
           d="M618.016 234.992c0,-78.6457 -30.0157,-140.661 -90.0157,-185.984 -53.9843,-41.3543 -121.669,-62.0157 -202.992,-62.0157 -105.354,0 -196,25.3543 -272,76l28 197.008c74.6457,-57.3228 144,-85.9843 208,-85.9843 20.6614,0 38.3307,4 53.0079,12 18.6457,9.32283 28,23.6535 28,42.9921 0,19.3386 -26.6772,39.3386 -80,60 -74.0157,28 -124,51.6535 -150.016,70.9921 -53.3228,39.3386 -80,91.6535 -80,157.008 0,78.6457 30.6772,140.661 92,185.984 55.3386,40.6614 123.654,61.0079 205.008,61.0079 77.3228,0 153.984,-22.9921 229.984,-69.0079l-30.9921 -186.992c-72.6614,48.6614 -132.346,73.0079 -178.992,73.0079 -44.6614,0 -66.9921,-15.3386 -66.9921,-46.0157 0,-23.3386 26.6457,-44.9764 80,-64.9764 74.6457,-27.3386 124,-50.0157 148,-68 53.3228,-40 80,-95.685 80,-167.024z" /></glyph><glyph
         id="glyph260"
         horiz-adv-x="1117"
         unicode="W"><path
           id="path262"
           d="M1100.16 750.992l-229.984 -750.992 -206.016 0 -104.976 398.992c-12.6929,-29.9843 -30.6772,-94.6457 -54.0157,-193.984 -16,-68 -32,-136.346 -48,-205.008l-205.984 0 -235.024 750.992 251.024 0 90.9921 -366.992c5.32283,10.6772 21.6693,69.0079 49.0079,174.992 16.6614,64 32.9764,128 48.9764,192l206.016 0 100 -366.992c1.32283,2.67717 30.9921,125.008 89.0079,366.992l248.976 0z" /></glyph><glyph
         id="glyph264"
         horiz-adv-x="866"
         unicode="U"><path
           id="path266"
           d="M801.165 310.016c0,-108.693 -34.3307,-190.677 -102.992,-246.016 -63.3386,-51.3386 -150.677,-77.0079 -262.016,-77.0079 -111.339,0 -199.339,24 -264,72 -72,54.6772 -108,135.685 -108,243.024l0 448.976 261.008 0 0 -428c0,-35.3386 9.51181,-64 28.5039,-85.9843 18.9921,-22.0157 45.8268,-33.0079 80.5039,-33.0079 36,0 63.3386,12.6614 81.9843,38.0157 17.3543,22.6457 26.0157,52.6614 26.0157,89.9843l0 418.992 258.992 0 0 -440.976z" /></glyph><glyph
         id="glyph268"
         horiz-adv-x="721"
         unicode="T"><path
           id="path270"
           d="M683.181 550.016l-194.016 0 0 -550.016 -258.992 0 0 550.016 -194.992 0 0 200.976 648 0 0 -200.976z" /></glyph><glyph
         id="glyph272"
         horiz-adv-x="937"
         unicode="X"><path
           id="path274"
           d="M918.001 0l-312.997 0 -140.006 232.995 -144.992 -232.995 -295.01 0 292.008 383 -275 368.002 311.992 0 124.003 -207.007 127.997 207.007 291.003 0 -271.005 -355.001 292.008 -396.001z" /></glyph><glyph
         id="glyph276"
         horiz-adv-x="661"
         unicode="b"><path
           id="path278"
           d="M625.008 169.008c0,-53.3543 -18.5197,-94.8346 -55.4961,-124.504 -37.0079,-29.6693 -82.8346,-44.5039 -137.512,-44.5039l-365.984 0 0 600 332 0c53.9843,0 97.9843,-9.66929 132,-29.0079 41.9843,-24.6614 62.9921,-61.6693 62.9921,-110.992 0,-36 -14.3307,-66.3307 -42.9921,-90.9921 -20,-16.6614 -51.0236,-33.0079 -93.0079,-49.0079 57.9843,-15.3386 96.6614,-29.6693 116,-42.9921 34.6457,-23.3386 52,-59.3386 52,-108zm-206.992 260c0,25.9843 -8.34646,45.8268 -25.0079,59.4961 -16.6614,13.6693 -38.0157,20.5039 -64,20.5039l-68 0 0 -162.016 65.9843 0c26.0157,0 47.685,7.1811 65.0079,21.5118 17.3228,14.3307 26.0157,34.4882 26.0157,60.5039zm12 -250.016c0,26.6772 -8.34646,47.1811 -25.0079,61.5118 -16.6614,14.3307 -38.6772,21.5118 -66.0157,21.5118l-77.9843 0 0 -168 73.0079 0c64,0 96,28.315 96,84.9764z" /></glyph><glyph
         id="glyph280"
         horiz-adv-x="514"
         unicode="f"><path
           id="path282"
           d="M482.016 478.016l-222.016 0 0 -124 204 0 0 -120 -204 0 0 -234.016 -197.008 0 0 600 419.024 0 0 -121.984z" /></glyph><glyph
         id="glyph284"
         horiz-adv-x="689"
         unicode="g"><path
           id="path286"
           d="M635.181 46.9921c-74.0157,-38.6457 -158.677,-57.9843 -254.016,-57.9843 -97.9843,0 -178.331,26.6457 -241.008,80 -65.9843,56.6614 -98.9921,133.323 -98.9921,229.984 0,98.0157 34.3307,175.685 102.992,233.008 64,53.3228 146.016,80 246.016,80 33.9843,0 69.6693,-4 106.992,-12 46.6772,-9.98425 79.3386,-23.6535 98.0157,-41.0079 3.30709,-3.33858 7.65354,-13.3228 12.9764,-29.9843 8,-22.6772 12,-34.0157 12,-34.0157l-81.9843 -68c-43.3386,32 -89.0079,48 -137.008,48 -49.3228,0 -88.3465,-16.8189 -117.008,-50.4882 -28.6614,-33.6693 -42.9921,-75.4961 -42.9921,-125.512 0,-53.3228 14.1732,-95.6535 42.4882,-126.992 28.3465,-31.3386 68.8504,-46.9921 121.512,-46.9921 14.6772,0 25.6693,3.33858 33.0079,9.98425 9.98425,9.35433 19.3386,15.3386 28,18.0157l0 72 -80 0 0 108 249.008 0 0 -286.016z" /></glyph><glyph
         id="glyph288"
         horiz-adv-x="622"
         unicode="c"><path
           id="path290"
           d="M562.173 30.0157c-59.3386,-27.3386 -120.661,-41.0079 -184,-41.0079 -94.6772,0 -172,28.315 -232,85.0079 -60,56.6614 -90.0157,131.654 -90.0157,224.976 0,95.3386 32,172 96,230.016 62.0157,55.3386 141.354,82.9921 238.016,82.9921 64.6614,0 121.008,-10.9921 169.008,-33.0079l0 -164c-43.3386,24 -88.6929,36 -136,36 -49.3543,0 -89.0079,-12.315 -119.024,-36.9764 -32.6614,-26.6772 -48.9764,-64 -48.9764,-112 0,-48 16.6614,-85.3543 49.9843,-112 30.6772,-24 70.6772,-36 120,-36 42.0157,0 87.6535,12 137.008,36l0 -160z" /></glyph><glyph
         id="glyph292"
         horiz-adv-x="834"
         unicode="m"><path
           id="path294"
           d="M785.165 0l-188 0c0.661417,61.3228 1.32283,122.331 2.01575,182.992 0,82.6772 -4.34646,141.669 -13.0079,177.008l-122.016 -269.984 -92.9764 0.976378 -108 236 -19.0236 -4c0,-4 -2.33071,-111.654 -6.99213,-322.992l-188 0 30.9921 600 187.024 0 150.992 -293.008 149.984 293.008 184 0 33.0079 -600z" /></glyph><glyph
         id="glyph296"
         horiz-adv-x="502"
         unicode="l"><path
           id="path298"
           d="M481.008 0l-417.008 0 0 600 198.016 0 0 -456 218.992 0 0 -144z" /></glyph><glyph
         id="glyph300"
         horiz-adv-x="698"
         unicode="k"><path
           id="path302"
           d="M701.008 0l-226.992 0c-45.3543,68.6614 -114.677,170.677 -208,306.016l0 -306.016 -199.024 0 0 600 199.024 0 0 -304 216 304 214.992 0 -216 -288 220 -312z" /></glyph><glyph
         id="glyph304"
         horiz-adv-x="766"
         unicode="n"><path
           id="path306"
           d="M702.016 0l-183.024 0 -262.992 334.016 6.99213 -334.016 -196.976 0 0 600 184 0 265.984 -330.992 -9.00787 330.992 195.024 0 0 -600z" /></glyph><glyph
         id="glyph308"
         horiz-adv-x="341"
         unicode="i"><path
           id="path310"
           d="M274.992 0l-208 0 0 600 208 0 0 -600z" /></glyph><glyph
         id="glyph312"
         horiz-adv-x="730"
         unicode="o"><path
           id="path314"
           d="M690.016 302.992c0,-96.6614 -29.6693,-173.165 -89.0079,-229.48 -59.3386,-56.3465 -137.669,-84.5039 -234.992,-84.5039 -96.6929,0 -175.024,27.6535 -235.024,82.9921 -60,55.3386 -89.9843,130.992 -89.9843,226.992 0,95.3386 30.9921,171.685 93.0079,229.008 60,56 138.331,84 234.992,84 93.9843,0 170.646,-27.6535 229.984,-82.9921 60.6614,-57.3543 91.0236,-132.661 91.0236,-226.016zm-197.008 -0.976378c0,41.3228 -10.9921,75.1496 -33.0079,101.48 -21.9843,26.3307 -53.3228,39.4961 -93.9843,39.4961 -42.0157,0 -73.6693,-13.9843 -95.0236,-41.9843 -20,-25.3543 -29.9843,-59.3386 -29.9843,-102.016 0,-41.9843 9.98425,-75.3386 29.9843,-100 21.3543,-27.3386 52.3465,-40.9764 93.0079,-40.9764 86.0157,0 129.008,48 129.008,144z" /></glyph><glyph
         id="glyph316"
         horiz-adv-x="734"
         unicode="h"><path
           id="path318"
           d="M672 0l-193.984 0 0 233.008 -217.008 0 0 -233.008 -196 0 0 600 196 0 0 -224 217.008 0 0 224 193.984 0 0 -600z" /></glyph><glyph
         id="glyph320"
         horiz-adv-x="702"
         unicode="d"><path
           id="path322"
           d="M662.992 297.008c0,-87.3386 -26.3307,-158.677 -78.9921,-214.016 -52.6614,-55.3386 -122.677,-82.9921 -209.984,-82.9921l-309.008 0 0 600 288 0c91.3386,0 165.827,-27.8425 223.496,-83.4961 57.6693,-55.685 86.4882,-128.85 86.4882,-219.496zm-197.984 1.98425c0,48 -12.3465,86.8346 -37.0079,116.504 -24.6614,29.6693 -60.6614,44.5039 -108,44.5039l-58.9921 0 0 -320 60 0c96,0 144,53.0079 144,158.992z" /></glyph><glyph
         id="glyph324"
         horiz-adv-x="726"
         unicode="a"><path
           id="path326"
           d="M714.016 0l-195.024 0 -30.9921 92 -246.992 0 -32 -92 -196 0 240 600 221.984 0 239.024 -600zm-258.016 190.016l-93.0079 289.984 -90.9921 -289.984 184 0z" /></glyph><glyph
         id="glyph328"
         horiz-adv-x="534"
         unicode="e"><path
           id="path330"
           d="M490.992 0l-426.992 0 0 600 425.008 0 0 -121.008 -226.992 0 0 -116 204.976 0 0 -120.976 -204.976 0 0 -121.008 228.976 0 0 -121.008z" /></glyph><glyph
         id="glyph332"
         horiz-adv-x="618"
         unicode="p"><path
           id="path334"
           d="M604 405.008c0,-91.3386 -38.6772,-150.331 -116,-177.008 -38.6772,-13.3228 -114.677,-20 -228,-20l0 -208 -197.008 0 0 600 320 0c66.0157,0 118.677,-15.6535 158.016,-46.9921 41.9843,-34.0157 62.9921,-83.3386 62.9921,-148zm-189.984 -1.00787c0,57.3228 -32.3465,86.0157 -97.0079,86.0157l-57.0079 0 0 -170.016 54.9921 0c66.0157,0 99.0236,28 99.0236,84z" /></glyph><glyph
         id="glyph336"
         horiz-adv-x="689"
         unicode="y"><path
           id="path338"
           d="M676 600l-232 -333.984 0 -266.016 -198.992 0 0 268 -230.992 332 234.992 0 110.992 -198.992 105.008 198.992 210.992 0z" /></glyph><glyph
         id="glyph340"
         horiz-adv-x="685"
         unicode="v"><path
           id="path342"
           d="M670.992 600l-240.976 -600 -168 0 -248 600 208 0 130.992 -389.008c17.3228,32 40,94.6772 68,188 20,67.3386 40,134.331 60,201.008l189.984 0z" /></glyph><glyph
         id="glyph344"
         horiz-adv-x="577"
         unicode="t"><path
           id="path346"
           d="M546.173 454.992l-161.008 0 0 -454.992 -194.992 0 0 454.992 -162.016 0 0 145.008 518.016 0 0 -145.008z" /></glyph><glyph
         id="glyph348"
         horiz-adv-x="627"
         unicode="z"><path
           id="path350"
           d="M605.008 0l-578.992 0 280.976 461.008 -282.992 0 0 138.992 576 0 -278.992 -460 284 0 0 -140z" /></glyph><glyph
         id="glyph352"
         horiz-adv-x="689"
         unicode="r"><path
           id="path354"
           d="M677.008 0l-210.016 0c-39.3386,78.6772 -60,120 -61.9843,124 -32,56.6614 -60,91.3386 -84,104l-58.9921 30.9921 0 -258.992 -197.008 0 0 600 333.008 0c63.3071,0 113.984,-12 152,-36 45.9843,-29.3228 68.9764,-73.6693 68.9764,-133.008 0,-41.3228 -13.3228,-74.3307 -40,-98.9921 -18.6457,-17.9843 -50.3307,-35.3386 -94.9921,-52 28.6614,-13.3228 65.6693,-57.3228 110.992,-132 27.3386,-49.3228 54.6772,-98.6772 82.0157,-148zm-250.016 418.016c0,56 -34.6457,84 -104,84l-60.9764 0 0 -170.016 60.9764 0c30.0157,0 54.8346,7.1811 74.5197,21.5118 19.6535,14.3307 29.4803,35.811 29.4803,64.5039z" /></glyph><glyph
         id="glyph356"
         horiz-adv-x="893"
         unicode="w"><path
           id="path358"
           d="M880.157 600l-184 -600 -152.976 0 -94.0157 358.992c-17.3228,-45.9843 -34.6772,-105.323 -52,-177.984 -13.9843,-60 -28,-120.346 -41.9843,-181.008l-153.008 0 -190.016 600 186.016 0 78.9921 -325.984c11.3386,17.3228 28.3465,69.3228 50.9921,156 14.6772,56.6614 29.0079,113.323 43.0236,169.984l152.976 0 88 -325.008c9.35433,13.3543 25.0079,65.0079 47.0236,155.024 12.6614,56.6614 25.6378,113.323 38.9921,169.984l181.984 0z" /></glyph><glyph
         id="glyph360"
         horiz-adv-x="694"
         unicode="u"><path
           id="path362"
           d="M641.165 246.992c0,-86.6457 -27.6535,-152.315 -82.9921,-196.976 -50.0157,-40.6929 -119.685,-61.0079 -209.008,-61.0079 -89.3228,0 -159.654,18.9921 -210.992,57.0079 -57.3543,43.3071 -86.0157,108 -86.0157,193.984l0 360 194.016 0 0 -342.992c0,-32.6614 8.8189,-58.9921 26.4882,-78.9921 17.6693,-20 42.5197,-30.0157 74.5197,-30.0157 33.3228,0 58.6457,11.3386 76,34.0157 16.6614,20.6614 24.9764,48 24.9764,81.9843l0 336 193.008 0 0 -353.008z" /></glyph><glyph
         id="glyph364"
         horiz-adv-x="534"
         unicode="s"><path
           id="path366"
           d="M494.016 184c0,-62.6772 -24.3465,-111.654 -73.0079,-146.992 -43.3386,-32 -97.3543,-48 -162.016,-48 -35.3386,0 -72.9764,5.32283 -112.976,16 -42.0157,11.3386 -76.6929,25.9843 -104,44l20.9764 136c53.3543,-40.6614 109.008,-61.0079 167.024,-61.0079 20,0 36.9764,4 50.9921,12 17.3228,9.32283 25.9843,23.3386 25.9843,42.0157 0,21.3228 -22.3307,40.6614 -66.9921,57.9843 -67.3386,26.0157 -109.323,44.3465 -125.984,54.9921 -44.6929,30.6772 -67.0236,72.6614 -67.0236,126.016 0,61.9843 25.0079,110.646 75.0236,145.984 44,32 98.3307,48 162.992,48 61.9843,0 122.646,-17.9843 181.984,-53.9843l-21.9843 -129.008c-55.3386,35.3386 -102.677,53.0079 -142.016,53.0079 -44.6614,0 -66.9921,-16.3465 -66.9921,-49.0079 0,-24 22.3307,-44.3465 66.9921,-61.0079 67.3386,-25.3228 108.661,-43.3386 124,-53.9843 44.6614,-30.6772 67.0236,-74.9921 67.0236,-133.008z" /></glyph><glyph
         id="glyph368"
         horiz-adv-x="750"
         unicode="x"><path
           id="path370"
           d="M734.992 0l-240 0 -122.992 205.008 -129.984 -205.008 -221.008 0 238.992 306.016 -225.984 293.984 236 0 112.976 -181.008 113.008 181.008 218.992 0 -220 -280 240 -320z" /></glyph></font><font
       font-weight="700"
       font-variant="normal"
       id="FontID0"
       horiz-origin-x="0"
       horiz-origin-y="0"
       horiz-adv-x="90"
       vert-origin-x="45"
       vert-origin-y="90"
       vert-adv-y="90"
       style="font-variant:normal;font-weight:700"><font-face
         id="font-face373"
         font-family="Arial" /><missing-glyph
         id="missing-glyph375"><path
           id="path377"
           d="M0 0z" /></missing-glyph><glyph
         id="glyph379"
         horiz-adv-x="277"
         unicode="."><path
           id="path381"
           d="M71.8425 0l0 137.165 137.165 0 0 -137.165 -137.165 0z" /></glyph><glyph
         id="glyph383"
         horiz-adv-x="277"
         unicode=" " /><glyph
         id="glyph385"
         horiz-adv-x="722"
         unicode="C"><path
           id="path387"
           d="M530.835 263.181l140 -44.3465c-21.5118,-78.1732 -57.1654,-136.157 -107.181,-174.173 -49.8268,-37.8268 -113.323,-56.8189 -190.142,-56.8189 -95.0236,0 -173.165,32.5039 -234.331,97.3228 -61.1654,65.0079 -91.8425,153.827 -91.8425,266.331 0,119.181 30.8346,211.685 92.315,277.669 61.5118,65.8268 142.362,98.8346 242.677,98.8346 87.4961,0 158.677,-25.8268 213.323,-77.6693 32.6929,-30.4882 57.0079,-74.4882 73.3543,-131.843l-143.181 -34.1417c-8.31496,37.1654 -25.9843,66.4882 -53.0079,88 -26.8031,21.4803 -59.4961,32.1575 -97.8268,32.1575 -52.9764,0 -96.1575,-18.9921 -129.165,-57.1654 -33.0079,-38.0157 -49.4803,-99.685 -49.4803,-185.008 0,-90.4882 16.1575,-154.992 48.8189,-193.323 32.5039,-38.5197 74.8346,-57.6693 126.835,-57.6693 38.4882,0 71.4961,12.1575 99.1811,36.6614 27.6535,24.3465 47.4961,62.8346 59.6535,115.181z" /></glyph><glyph
         id="glyph389"
         horiz-adv-x="722"
         unicode="D"><path
           id="path391"
           d="M72.3465 715.843l264.157 0c59.4961,0 104.819,-4.50394 136.157,-13.6693 42.0157,-12.3465 78.0157,-34.3307 107.843,-66.0157 29.9843,-31.4961 52.8189,-70.1417 68.5039,-115.811 15.4961,-45.8583 23.3386,-102.173 23.3386,-169.354 0,-58.8346 -7.33858,-109.669 -22.0157,-152.315 -17.8268,-52 -43.3386,-94.1732 -76.6614,-126.331 -25.0079,-24.5039 -58.8346,-43.5276 -101.512,-57.1654 -31.811,-10.1732 -74.4882,-15.1811 -128,-15.1811l-271.811 0 0 715.843zm144.472 -121.165l0 -474.016 107.843 0c40.3465,0 69.5118,2.17323 87.4961,6.83465 23.3386,5.82677 42.8346,15.685 58.3307,29.6693 15.5276,14.0157 28,37.1654 37.8583,69.1654 9.66929,32 14.6457,75.8425 14.6457,131.181 0,55.3071 -4.97638,97.6693 -14.6457,127.307 -9.85827,29.6693 -23.5276,52.8504 -41.0079,69.3543 -17.6693,16.6614 -40,27.8425 -66.9921,33.6693 -20.189,4.66142 -59.685,6.83465 -118.677,6.83465l-64.8504 0z" /></glyph><glyph
         id="glyph393"
         horiz-adv-x="943"
         unicode="W"><path
           id="path395"
           d="M174.331 0l-170.835 715.843 147.843 0 108 -491.685 130.835 491.685 171.843 0 125.48 -500 109.827 500 145.512 0 -173.827 -715.843 -153.354 0 -142.488 535.181 -142.173 -535.181 -156.661 0z" /></glyph><glyph
         id="glyph397"
         horiz-adv-x="610"
         unicode="o"><path
           id="path399"
           d="M40 266.677c0,45.4803 11.3386,89.6693 33.6693,132.315 22.4882,42.5197 54.3307,75.1811 95.4961,97.5118 41.1654,22.4882 87.1811,33.8268 138.016,33.8268 78.3307,0 142.646,-25.5118 192.819,-76.5039 50.1732,-50.9921 75.1811,-115.339 75.1811,-193.165 0,-78.3307 -25.3543,-143.339 -75.8425,-194.992 -50.6772,-51.6535 -114.331,-77.3228 -191.181,-77.3228 -47.6535,0 -92.8189,10.6457 -136,32.1575 -43.1496,21.5118 -76,53.0079 -98.4882,94.4882 -22.3307,41.5118 -33.6693,92 -33.6693,151.685zm140.661 -7.33858c0,-51.4961 12.1575,-90.8346 36.6614,-118.173 24.3465,-27.3386 54.5197,-41.0079 90.3307,-41.0079 35.8425,0 65.8583,13.6693 90.0157,41.0079 24.3465,27.3386 36.5039,66.9921 36.5039,119.181 0,50.6457 -12.1575,89.8268 -36.5039,117.165 -24.1575,27.3071 -54.1732,40.9764 -90.0157,40.9764 -35.811,0 -65.9843,-13.6693 -90.3307,-40.9764 -24.5039,-27.3386 -36.6614,-66.8346 -36.6614,-118.173z" /></glyph><glyph
         id="glyph401"
         horiz-adv-x="610"
         unicode="g"><path
           id="path403"
           d="M59.1811 -34.1732l156.661 -18.9921c2.64567,-18.3307 8.66142,-30.8346 17.9843,-37.6693 13.0079,-9.82677 33.6693,-14.6772 61.5118,-14.6772 35.8425,0 62.6772,5.35433 80.6614,16.189 12,7.14961 21.1654,18.6457 27.3386,34.6457 4.15748,11.3386 6.33071,32.3465 6.33071,63.0236l0 75.6535c-41.0079,-56 -92.8504,-84 -155.339,-84 -69.6693,0 -124.819,29.5118 -165.512,88.3465 -31.811,46.6457 -47.811,104.472 -47.811,173.827 0,86.9921 21.0079,153.323 62.8346,199.339 41.8268,45.8268 93.8268,68.8189 156,68.8189 64,0 116.976,-28.1575 158.646,-84.5039l0 72.6614 128.346 0 0 -465.323c0,-61.1654 -5.00787,-106.835 -15.1811,-137.165 -9.98425,-30.3307 -24.1575,-54.0157 -42.3307,-71.3386 -18.3307,-17.1654 -42.6457,-30.6772 -72.9764,-40.5039 -30.5197,-9.66929 -69.0079,-14.6457 -115.528,-14.6457 -88,0 -150.331,15.1496 -186.992,45.1654 -36.8189,30.1417 -55.1496,68.315 -55.1496,114.488 0,4.66142 0.15748,10.1732 0.503937,16.6614zm122.488 304.189c0,-55.0236 10.6772,-95.3386 32,-120.85 21.3228,-25.5118 47.4961,-38.3307 78.8346,-38.3307 33.5118,0 61.8268,13.1654 85.0079,39.3386 22.9921,26.1732 34.6457,65.0079 34.6457,116.504 0,53.6693 -11.1496,93.4803 -33.3228,119.496 -22.0157,26.1732 -50.0157,39.1496 -83.8425,39.1496 -32.9764,0 -60,-12.8189 -81.3228,-38.3307 -21.3228,-25.6693 -32,-64.5039 -32,-116.976z" /></glyph><glyph
         id="glyph405"
         horiz-adv-x="610"
         unicode="n"><path
           id="path407"
           d="M543.496 0l-137.165 0 0 264.661c0,56 -2.99213,92.1575 -8.8189,108.661 -5.85827,16.3465 -15.4961,29.1654 -28.6929,38.3307 -13.1654,9.00787 -28.9764,13.6693 -47.4961,13.6693 -23.811,0 -45.1654,-6.48819 -64,-19.4961 -18.8346,-13.1654 -31.811,-30.3307 -38.8346,-51.811 -6.99213,-21.5118 -10.4882,-61.1969 -10.4882,-119.181l0 -234.835 -137.165 0 0 518.488 127.339 0 0 -76.1575c45.3228,58.6772 102.331,88 170.992,88 30.1732,0 58.0157,-5.51181 82.9921,-16.315 25.0079,-11.0236 44,-24.8504 56.8504,-41.8583 12.8189,-16.9764 21.8268,-36.1575 26.8346,-57.6693 5.16535,-21.4803 7.65354,-52.1575 7.65354,-92.1575l0 -322.331z" /></glyph><glyph
         id="glyph409"
         horiz-adv-x="277"
         unicode="i"><path
           id="path411"
           d="M71.8425 588.819l0 127.024 137.165 0 0 -127.024 -137.165 0zm0 -588.819l0 518.488 137.165 0 0 -518.488 -137.165 0z" /></glyph><glyph
         id="glyph413"
         horiz-adv-x="610"
         unicode="h"><path
           id="path415"
           d="M208.504 715.843l0 -263.181c44.315,51.685 97.1654,77.6693 158.677,77.6693 31.6535,0 60,-5.98425 85.4803,-17.6693 25.3543,-11.6535 44.5039,-26.6457 57.3543,-44.8189 12.8189,-18.3307 21.6378,-38.5197 26.3307,-60.6614 4.8189,-22.0157 7.14961,-56.5039 7.14961,-103.024l0 -304.157 -137.165 0 0 274.016c0,54.3307 -2.67717,88.8189 -7.84252,103.496 -5.32283,14.6457 -14.4882,26.1417 -27.6535,34.8346 -13.1654,8.66142 -29.6693,12.9764 -49.5118,12.9764 -22.8346,0 -43.1496,-5.48031 -60.9764,-16.6614 -18.0157,-10.9921 -31.1811,-27.6535 -39.3386,-49.9843 -8.34646,-22.3307 -12.5039,-55.3386 -12.5039,-98.8346l0 -259.843 -137.165 0 0 715.843 137.165 0z" /></glyph><glyph
         id="glyph417"
         horiz-adv-x="556"
         unicode="a"><path
           id="path419"
           d="M174.331 360.346l-124.504 22.4882c14.0157,50.1732 38.0157,87.1811 72.189,111.339 34.3307,24 84.9764,36.1575 152.315,36.1575 61.3228,0 106.835,-7.33858 136.85,-21.8268 29.8268,-14.4882 50.9921,-32.8504 63.1496,-55.1811 12.1575,-22.3307 18.3307,-63.1496 18.3307,-122.835l-1.48031 -160.157c0,-45.5118 2.14173,-79.1496 6.64567,-100.819 4.34646,-21.5118 12.6614,-44.8504 24.6614,-69.5118l-135.811 0c-3.49606,9.16535 -8,22.6772 -13.1654,40.5039 -2.17323,8.15748 -3.84252,13.5118 -4.85039,16.1575 -23.4961,-22.8346 -48.5039,-39.8425 -75.1496,-51.3386 -26.6772,-11.3386 -55.1811,-16.9764 -85.5118,-16.9764 -53.3228,0 -95.4961,14.4882 -126.173,43.3071 -30.8346,29.0079 -46.1732,65.6693 -46.1732,110.016 0,29.1654 7.02362,55.3386 21.0079,78.3307 14.0157,22.9921 33.6693,40.5039 58.8346,52.6614 25.1654,12.1575 61.6693,22.8346 109.165,32 64,12 108.504,23.3386 133.165,33.6693l0 13.6693c0,26.4882 -6.48819,45.1654 -19.4961,56.5039 -13.0079,11.1496 -37.5118,16.8189 -73.6693,16.8189 -24.5039,0 -43.4961,-4.8189 -57.1654,-14.4882 -13.6693,-9.51181 -24.6614,-26.3307 -33.1654,-50.4882zm183.496 -111.339c-17.4803,-5.82677 -45.3228,-12.8504 -83.4961,-21.0079 -37.9843,-8.15748 -62.8346,-16.1575 -74.6772,-23.8425 -17.8268,-12.8189 -26.8346,-28.8189 -26.8346,-48.315 0,-19.3386 7.1811,-35.8425 21.5118,-49.8268 14.3307,-14.0157 32.5039,-21.0079 54.6772,-21.0079 24.8189,0 48.315,8.15748 70.8346,24.315 16.6614,12.3465 27.4961,27.4961 32.6614,45.5118 3.65354,11.6535 5.32283,33.9843 5.32283,66.8346l0 27.3386z" /></glyph><glyph
         id="glyph421"
         horiz-adv-x="333"
         unicode="t"><path
           id="path423"
           d="M309.512 518.488l0 -109.323 -93.6693 0 0 -209.008c0,-42.3307 0.818898,-66.9921 2.64567,-73.9843 1.85827,-6.99213 5.85827,-12.6614 12.189,-17.3543 6.33071,-4.47244 14.1417,-6.80315 23.1496,-6.80315 12.8504,0 31.1811,4.47244 55.3386,13.1654l11.6535 -106.362c-32,-13.6378 -68,-20.4724 -108.472,-20.4724 -24.6929,0 -47.0236,4.15748 -66.8346,12.315 -19.8425,8.34646 -34.3307,19.1811 -43.685,32.3465 -9.32283,13.1654 -15.6535,30.9921 -19.3386,53.4803 -2.83465,15.8425 -4.31496,48.189 -4.31496,96.6929l0 225.984 -62.9921 0 0 109.323 62.9921 0 0 103.181 137.669 80 0 -183.181 93.6693 0z" /></glyph><glyph
         id="glyph425"
         horiz-adv-x="556"
         unicode="s"><path
           id="path427"
           d="M23.4961 148l137.669 21.0079c5.82677,-26.6772 17.6693,-46.9921 35.6535,-60.8504 17.8583,-13.8268 42.8346,-20.8189 75.1811,-20.8189 35.4961,0 62.1732,6.48819 80,19.6535 12.1575,9.00787 18.1732,21.3543 18.1732,36.5039 0,10.5197 -3.33858,19.1811 -9.82677,26.0157 -6.83465,6.48819 -22.1732,12.5039 -45.8583,17.9843 -110.646,24.3465 -180.819,46.6772 -210.488,66.8346 -41.0079,28 -61.5118,66.9921 -61.5118,116.85 0,44.8189 17.6693,82.6457 53.1654,113.165 35.5276,30.6457 90.5197,45.9843 165.008,45.9843 70.9921,0 123.843,-11.6535 158.331,-34.6772 34.5197,-23.1496 58.1732,-57.3228 71.1811,-102.646l-129.354 -23.8425c-5.48031,20.1575 -16,35.6535 -31.4961,46.3307 -15.4961,10.8346 -37.4803,16.1575 -66.1417,16.1575 -36.189,0 -62.0157,-4.97638 -77.6693,-15.1496 -10.3307,-7.1811 -15.4961,-16.5039 -15.4961,-27.8425 0,-9.82677 4.47244,-17.9843 13.6378,-24.8189 12.3465,-9.16535 55.0236,-22.0157 128.189,-38.6772 72.9764,-16.5039 124,-36.8189 152.976,-61.0079 28.6929,-24.5039 43.0236,-58.4882 43.0236,-101.984 0,-47.4961 -19.8425,-88.5039 -59.685,-122.677 -39.6535,-34.1732 -98.3307,-51.1496 -176.157,-51.1496 -70.6772,0 -126.488,14.3307 -167.843,42.9921 -41.1654,28.5039 -68,67.4961 -80.6614,116.661z" /></glyph></font>
</defs>
</svg>
